#TITLE:Dlmata;
#SUBTITLE:- Pasarela;
#ARTIST:Unknown artist;
#TITLETRANSLIT:;
#SUBTITLETRANSLIT:;
#ARTISTTRANSLIT:;
#CREDIT:;
#BANNER:;
#BACKGROUND:;
#LYRICSPATH:;
#CDTITLE:;
#MUSIC:Dlmata - Pasarela.mp3;
#OFFSET:-0.834;
#SAMPLESTART:63.967;
#SAMPLELENGTH:12.000;
#SELECTABLE:YES;
#BPMS:0.000=95.037,64.000=47.519,72.000=95.037;
#STOPS:;
#BGCHANGES:;
// cache tags:
#FIRSTBEAT:0.000;
#LASTBEAT:285.500;
#SONGFILENAME:Songs/SDO 7/Dlmata - Pasarela/Dlmata - Pasarela.sm;
#HASMUSIC:1;
#HASBANNER:0;
#MUSICLENGTH:216.460;
// end cache tags

//---------------dance-single - ----------------
#NOTES:
     dance-single:
     :
     Hard:
     1:
     0.546,0.775,0.222,0.171,0.661,741.000,48.000,37.000,0.000,11.000:
0001
1000
0001
0000
1000
0000
0001
0000
1000
0000
0001
0000
1000
0000
0001
0000
,
1000
0000
0001
0000
1000
0000
0001
0000
1000
0020
0001
0000
0231
0000
1000
0000
,
0001
0000
1000
0000
0001
0000
1000
0000
0301
0020
1000
0000
0231
0000
1000
0000
,
0001
0000
1000
0000
0001
0000
1000
0000
0001
0300
1000
0000
0001
0000
0001
0000
,
1000
0001
1000
0001
1000
0001
1000
0001
,
1000
0001
1000
0001
1000
0001
1000
0001
,
1000
0001
1000
0001
1000
0001
1000
0001
,
1000
0000
0001
0000
1000
0000
0001
0000
1000
0000
0001
0000
0010
0100
0001
0000
,
0010
0000
1000
0000
0010
0000
0100
0000
0001
0000
1000
0000
0010
0100
0000
0000
,
0001
0000
1000
0000
0010
0100
0000
0010
0000
0000
0100
0000
0010
0000
1000
0000
,
0010
0100
0010
1000
0010
0100
0001
1000
,
0010
0000
0100
0000
0010
0000
1000
0000
0010
0000
0100
0000
0010
1000
0000
0000
,
0110
0001
0000
0010
1000
0000
0010
0000
0110
0000
0011
0000
1000
0100
0000
0010
,
0110
0001
0010
1000
0100
0010
0000
0000
0000
0010
0010
0000
1100
0100
0010
0010
,
0000
0110
0110
0000
1100
0010
0010
0000
0110
0010
1000
0100
0010
0010
0100
0001
,
0010
1000
0110
0010
0100
0010
0001
0010
1000
0000
0010
0010
0100
0000
0010
0000
,
0100
0000
0010
1000
0010
0000
0100
0000
0010
0100
0010
0000
0000
0100
0000
0010
0000
1000
0000
0010
0110
0000
0100
0000
0010
1000
0100
0000
0020
0000
0000
0130
,
0020
0000
0000
0130
0020
0000
1030
0000
0100
0010
0010
0100
0020
0000
0000
0130
0020
0000
1030
0100
0010
0000
0100
0000
0010
0000
1000
0000
0010
0100
0001
0001
,
0100
0010
0000
1000
0000
0010
0100
0001
0100
0000
0010
0000
1000
0010
0100
0010
,
0100
0001
1000
0010
0100
0010
0100
0010
0100
0010
1000
0010
0100
0000
0010
0100
,
0001
0100
0010
1000
0010
0100
0001
0100
0010
1000
0010
0100
0010
0100
0010
0000
,
0100
0010
1000
0000
0010
0100
0010
0000
0100
0010
1000
0000
0010
0100
0000
0010
,
0010
0100
0000
0010
0010
1010
0000
0010
0100
0010
0100
0001
0000
0001
0101
0000
,
1010
0000
0010
0100
0010
0000
0100
1000
0110
0000
0000
0100
0010
0100
0000
0000
,
0010
1010
0010
0000
0100
0010
0010
0100
1000
0100
0010
0000
0010
0100
0001
1000
,
0000
0010
0100
0010
0010
0000
0100
1001
0000
0100
0010
0010
0100
0000
0010
1000
,
0000
0010
0100
0010
0010
0000
0010
1000
0010
0010
0100
0010
0010
0100
0000
0010
,
0010
0010
1000
0010
0000
0010
0100
0000
0010
0000
0010
0000
1000
0010
0010
0000
,
0010
0110
0100
0010
0000
0010
0000
1010
0010
0000
1000
0000
0010
0010
1000
0010
,
0100
0010
0110
0001
0000
1001
0000
0001
0001
0100
0010
0000
1001
0000
0001
0100
,
0001
0001
0001
0000
1000
0010
0000
0010
0001
0001
0001
0000
1000
0010
0010
0100
,
0001
0001
0001
0000
1000
0010
0110
0000
0001
0001
0001
0000
1000
0010
0010
0100
,
0010
0001
0001
0000
0000
1010
0010
0000
0110
0001
0001
0000
0000
1010
0010
0100
,
0001
0001
0001
0000
0001
0000
1010
0010
0000
0100
0010
0010
0000
1000
0010
0000
,
0000
0020
0000
0000
0000
0000
0130
0010
0010
0000
0100
1000
0000
0110
0010
0000
,
0200
0000
0000
0310
0010
0000
0100
0000
0020
0000
0100
0030
1000
0010
0100
0010
,
0000
0020
0000
0030
0100
0020
0000
0130
0010
0010
1000
0000
0100
0010
0010
0000
,
0110
0010
0000
0100
0010
0010
0000
0100
0011
0000
1000
0000
0010
0100
0000
0010
,
0000
1000
0000
0001
1000
0000
0001
0000
0100
0010
0010
0000
0100
0010
0000
0000
,
1010
0000
0110
0000
0010
0100
0000
0010
0000
1000
0010
0000
0100
0010
0000
0010
,
0000
1000
0010
0010
0000
0100
0001
0000
0100
0010
0000
1000
0010
0000
0100
0010
,
0010
0100
0000
0010
0010
0000
1000
0000
0010
0100
0000
0010
0100
0010
0001
0000
,
1000
0010
0000
0010
0100
0010
0000
1010
0010
0000
1000
0000
0010
0010
1000
0010
,
0000
0010
0000
1000
0010
0010
1000
0000
0010
0100
0012
0000
0000
1013
0200
1000
,
0020
0000
0030
0000
0010
0000
1010
0010
1302
0000
0010
0000
0100
0020
2003
0130
,
0010
0010
0000
0000
0010
0010
0100
0000
3010
0010
0100
0001
1000
0001
0000
0100
,
0010
0010
0000
0110
0000
0010
1000
0000
0010
0010
0100
0000
0010
0000
1000
0010
,
0010
0000
0100
0010
0010
0000
1000
0000
0010
0010
0000
1010
0002
0010
1203
0000
,
0010
0010
1000
0010
0010
0000
1000
0010
0320
0000
0100
0030
2101
0000
0000
0000
,
0001
0100
0000
0010
0010
0000
0000
3001
0101
0000
0100
0010
0000
1001
0000
0100
,
0010
0000
0100
0000
0010
0100
0000
0010
0000
0100
0000
0010
1000
0000
0000
0100
,
0010
0000
0100
0000
0010
1000
0000
0100
0020
0000
0000
0000
0230
0000
0000
0310
,
0010
0000
0100
0000
0010
0000
1000
0000
0001
0000
0001
0000
0100
0010
0000
0100
,
0001
0000
1000
0010
0000
0200
0000
0000
0320
0000
0000
0030
0100
0010
0000
0100
,
0010
0010
0100
0001
0000
0001
1000
0000
0001
0000
1000
0000
0010
0000
0100
0000
,
0010
0100
0010
1000
0001
0100
0010
1000
,
0010
0000
0100
0000
0010
0000
0000
0100
0010
0000
0000
1000
0010
0000
0100
0000
,
0001
0100
0010
1000
0010
0100
0010
0100
,
0010
1000
0010
0100
0010
0010
1000
0010
,
0100
0000
0010
1000
0010
0000
0100
0000
0010
0000
1000
0010
0100
0000
0010
0000
,
1000
0000
0001
0000
1000
0000
0010
0100
0010
0000
0100
0000
0010
0000
1000
0010
,
0000
0100
0000
0000
0010
0110
0000
1000
0010
0010
0100
0000
0001
0000
0100
0001
,
0000
0001
1000
0000
0001
0000
0100
0001
0001
0000
1000
0000
0001
0001
0000
1000
,
0001
0001
0000
0001
0001
1000
0000
0010
0010
0000
1010
0000
0002
0000
0000
0000
,
0100
0013
0010
0100
0000
0020
0000
0130
0020
0000
0000
0000
1002
0030
0100
0000
,
0010
0000
0100
0000
0023
0000
0130
0000
0001
0000
0001
1000
0010
0000
0010
0100
,
0001
0000
0001
1000
0010
0000
0100
0001
0001
0000
1000
0000
0010
0000
0000
0001
,
0001
0001
0000
1000
0010
0010
0000
0100
0010
0010
0100
0000
0002
0200
0000
0000
,
0000
0000
0000
0000
0000
0000
0000
0000
0003
0020
0000
0000
2300
0000
0000
0000
,
0000
0000
0000
3000
0000
1030
0000
0010
0000
0010
0000
0100
0010
0000
0100
0000
,
0010
0000
1000
0010
0010
0000
0100
0000
0001
0000
0100
0010
0000
0010
0100
0010
,
0000
1000
0000
0000
0010
0100
0010
0000
0000
0000
0000
0000
0000
0000
0000
0000
;
